Torrentz

Added 5 years ago

Jonah Hex (2010) DVDRip XviD-MAXSPEED 14 download locations

Download Direct Jonah Hex (2010) DVDRip XviD-MAXSPEED
Sponsored Link
1337x.to Jonah Hex 2010 DVDRip XviD MAXSPEED movies divx xvid
12 hours
rarbg.com Jonah Hex 2010 DVDRip XviD MAXSPEED rarbg com movies xvid
32 min
extratorrent.cc Jonah Hex 2010 DVDRip XviD MAXSPEED movies action
22 hours
thepiratebay.org Jonah Hex 2010 DVDRip XviD MAX video movies
1 year
torrenthound.com Jonah Hex 2010 DVDRip XviD MAX movies
3 days
torlock.com Jonah Hex 2010 DVDRip XviD MAXSPEED movies
9 hours
yourbittorrent.com Jonah Hex DVDRip XviD movies
1 month
monova.org Jonah Hex 2010 DVDRip XviD MAX movies
3 days
h33t.to Jonah Hex 2010 DVDRip XviD MAXSPEED movies
1 year
torrentbit.net Jonah Hex 2010 DVDRip XviD MAXSPEED movies
13 hours
torrentfunk.com Jonah Hex 2010 DVDRip XviD MAXSPEED unknown
2 days
limetorrents.cc Jonah Hex 2010 DVDRip XviD MAX movies
11 days
bitsnoop.com Jonah Hex 2010 DVDRip XviD MAXSPEED video movies
1 month
torrentproject.se Jonah Hex 2010 DVDRip XviD MAXSPEED video dvdrip
3 hours

Using BitTorrent is legal, downloading copyrighted material isn’t. Be careful of what you download or face the consequences.
You need a client like qBittorrent, Deluge or Transmission to download.

info_hash: 04296156daf7590c2d76707ac566b541e4303de6

Trackers

http://www.opentrackr.org/announce
1 hour 1 0

You can get a µTorrent compatible list here.

3 Verify as a good torrent (34) Fake 6 Password 0 Low quality 0 Virus 0 We need your feedback! Please vote, it's quick and anonymous. Bookmark Bookmark
Size: 1,315 MB

Torrent Contents

Please note that this page does not hosts or makes available any of the listed filenames. You cannot download any of those files from here.

User Comments (27)

anie14 (34) 5 years
2
nice print.............
che911 (424) 5 years
4
Jonah Hex (2010) DVDRip XviD-MAXSPEED
Format : AVI
Format/Info : Audio Video Interleave
Format profile : OpenDML
File size : 1.28 GiB
Duration : 1h 21mn
Overall bit rate : 2 257 Kbps
Writing application : VirtualDubMod 1.5.10.2 (build 2542/release)
Writing library : VirtualDubMod build 2542/release
Original source form : MAX TORRENTZ
Copyright : SIGISMUNT

Video
ID : 0
Format : MPEG-4 Visual
Format profile : AdvancedSimple@L5
Format settings, BVOP : Yes
Format settings, QPel : No
Format settings, GMC : No warppoints
Format settings, Matrix : Custom
Codec ID : XVID
Codec ID/Hint : XviD
Duration : 1h 21mn
Bit rate : 1 868 Kbps
Width : 720 pixels
Height : 304 pixels
Display aspect ratio : 2.35:1
Frame rate : 23.976 fps
Resolution : 24 bits
Colorimetry : 4:2:0
Scan type : Progressive
Bits/(Pixel*Frame) : 0.356
Stream size : 1.06 GiB (83%)
Writing library : XviD 1.2.1 (UTC 2008-12-04)
che911 (424) 5 years
5
Audio
ID : 1
Format : AC-3
Format/Info : Audio Coding 3
Codec ID : 2000
Duration : 1h 21mn
Bit rate mode : Constant
Bit rate : 384 Kbps
Channel(s) : 6 channels
Channel positions : Front: L C R, Surround: L R, LFE
Sampling rate : 48.0 KHz
Stream size : 224 MiB (17%)
Alignment : Aligned on interleaves
Interleave, duration : 64 ms (1.53 video frames)
Interleave, preload duration : 192 ms

Source: Jonah.Hex.2010.Bluray.720p.DTS.x264-CHD (perfect sync)


Screenshots :

http://www.postimg.com/image/23000/22027.jpg
http://www.postimg.com/image/23000/22028.jpg
http://www.postimg.com/image/23000/22029.jpg
http://www.postimg.com/image/23000/22030.jpg
http://www.postimg.com/image/23000/22031.jpg
N_crassa (88) 5 years
6
A:10
V:10
Justonfire (13) 5 years
2
good quality
ravi3332001 (-4) 5 years
-5
k3prince (61) 5 years
0
****
xXR33PUR13Xx (8) 5 years
-3
doc13 (-49) 5 years
-2
THANK YOU MAXSPEED FOR YOUR EXCELLENT WORK.
ari1991 (1,611) 5 years
3
MAXSPEED ROCKS BY GIVING HQ MOVIES AND SUPER HIGH DOWNLOAD SPEEDS!!
Ranyu (1,234) 5 years
3
Maxspeed torrent so no doubt about the quality. But check out the torrent in the below link.

http://www.torrentz.com/f5217531bdc28b26258c8bff695392218a2245de

Uploader is RiddlerA. File size is 500MB. 720p quality. File format .mkv.
you read the comments and then go for download or check out the sample attached.
**** sure that you will not be disappointed in quality wise.
If you like the torrent vote me up, so others also will believe this comment is useful.

Happy to help you.:-)
robbie00 (24) 5 years
1
v/10
a/10
great quality
robertbrown4569 (70) 5 years
1
Thanks MaxSpeed! Love you. Really good print
elcastillo (9) 5 years
-1
where can i get the subs for this version?
saggz22 (66) 5 years
-1
Great rip, awesome movie. Highly recommended!
elton_john (-12) 5 years
-1
no offense to saggz22, but youd have to watch this movie on a potent combination of x and crack to call this movie awesome. or, have the iq of a 7 year old. and not the savant type 7 year old that i was, playing piano and writing pinball wizard and schits. good quality, but dont waste your bandwidth.
chethan346771 (13) 5 years
1
not bad
chethan346771 (13) 5 years
0
not bad its good
kadeve (56) 5 years
-2
Do not waste your time watching this awful movie..

Megan Fox is not even naked and you can see her tops 5 minutes whole movie.. you see the dog and the horse more often.
samir4ever (19) 5 years
-1
awesome print, hey can anyone please upload the movie "the romantics".starin katie holmes,anna paquin n josh duhamel.
deepak1019 (-4) 5 years
-7
dexxa1290 (35) 5 years
1
Great movie

thanks
reqsei666 (27) 5 years
4
****
kaeldragor (16) 5 years
0
****
Trev1958 (3) 5 years
1
good movie but then again i like these type of movies, thanks maxspeed good job

A=10
V=10
saggz22 (66) 5 years
1
if you don't like the movie... don't download it... simple as that...
nono2001 (102) 4 years
0
A=10
V=10
Post a comment

You need to log in before you can post comments.

Related to jonah hex 2010

Джона Хекс Jonah Hex 2010 HDRip Лицензия » movies video isohunt rulezzz hdrip
25 years1394 MB 732
Jonah Hex 2010 BDRip from HQ ViDEO » video movies
25 years1491 MB 141
Jonah Hex 2010 FRENCH DVDRip XviD NoTag » movies divx xvid
53 years700 MB 91
Jonah Hex 2010 720p BrRip x264 YIFY » movies hd
73 years650 MB 42
Jonah Hex 2010 1080p BluRay H264 AAC RARBG » movies highres
54 months1592 MB 42
Jonah Hex 2010 1080p BrRip x264 YIFY » movies hd
73 years1128 MB 32
Джона Хекс Jonah Hex 2010 BDRip от HQCLUB » movies video
25 years1489 MB 20
DC Showcase Presents Jonah Hex 2010 720p BluRay X264 PhoenixRG » movies animation
5 years164 MB 21
Jonah Hex 2010 720p BluRay H264 AAC RARBG » movies highres
54 months1009 MB 20
DC Showcase Presents Jonah Hex 2010 BDRiP XviD QCF » tv video movies
5 years99 MB 10
Джона Хекс Jonah Hex 2010 DVDRip КПК » movies video isohunt rulezzz hdrip
25 years241 MB 10
Джона Хекс Jonah Hex 2010 HDRip » movies video isohunt rulezzz
25 years747 MB 10
Джона Хекс Jonah Hex 2010 BDRip 1080p »
25 years8347 MB 11
Джона Хекс Jonah Hex 2010 BDRip 720p от NOLIMITS TEAM » movies video isohunt rulezzz
25 years2230 MB 10
Джона Хекс Jonah Hex 2010 BDRip 1080p Rip by Neofilm » movies video
25 years4370 MB 10
lexi lowe 0s, swedish big 0s, bee movie 2007 3s, friends mom 3s, fuck 1s, the reborn 3s, teenage mutant ninja turtles out of the shadows 3s, game of thrones s06e09 0s, justified s06 0s, alice in wonderland 2010 3s