Torrentz

Added 5 years ago

Up In The Air (2009) DVDRip XviD-MAXSPEED 17 download locations

Download Direct Up In The Air (2009) DVDRip XviD-MAXSPEED
Sponsored Link
1337x.to Up In The Air 2009 DVDRip XviD MAXSPEED movies divx xvid
yesterday
vertor.com Up In The Air 2009 DVDRip XviD MAX movies
yesterday
thepiratebay.org Up In The Air 2009 DVDRip XviD MAX video movies
2 months
torrenthound.com Up In The Air 2009 DVDRip XviD MAXSPEED movies
2 days
torlock.com Up In The Air 2009 DVDRip XviD MAXSPEED movies
2 days
yourbittorrent.com Up In The Air DVDRip XviD movies
2 days
monova.org Up In The Air 2009 DVDRip XviD MAX movies
2 days
h33t.to Up In The Air 2009 DVDRip XviD MAXSPEED movies
2 days
torrentreactor.net Up In The Air 2009 DVDRip XviD MAX movies dvdrip xvid 2009
2 days
fulldls.com Up In The Air 2009 DVDRip XviD MAX movies
3 months
torrentzap.com Up In The Air 2009 DVDRip XviD MAX movies
2 months
torrentdownloads.me Up In The Air 2009 DVDRip XviD MAXSPEED movies
2 days
torrents.net Up In The Air 2009 DVDRip XviD MAXSPEED movies
2 days
torrentfunk.com Up In The Air 2009 DVDRip XviD MAXSPEED movies
2 days
limetorrents.cc Up In The Air 2009 DVDRip XviD MAX movies
3 days
bitsnoop.com Up In The Air 2009 DVDRip XviD MAX video movies
2 months
torrentproject.se Up In The Air 2009 DVDRip XviD MAXSPEED video dvdrip
2 days

Using BitTorrent is legal, downloading copyrighted material isn’t. Be careful of what you download or face the consequences.
You need a client like qBittorrent, Deluge or Transmission to download.

info_hash: 3f596326895891826e030aab756d6832b99a1359

Trackers

http://9.rarbg.com:2710/announce
1 hour 8 0
udp://open.demonii.com:1337/announce
1 hour 8 0

You can get a µTorrent compatible list here.

1 Verify as a good torrent (20) Fake 0 Password 0 Low quality 6 Virus 0 We need your feedback! Please vote, it's quick and anonymous. Bookmark Bookmark
Size: 1,402 MB

Torrent Contents

Please note that this page does not hosts or makes available any of the listed filenames. You cannot download any of those files from here.

User Comments (17)

che911 (424) 5 years
2
Up In The Air (2009) DVDRip XviD-MAX

Format : AVI
Format/Info : Audio Video Interleave
File size : 1.37 GiB
Duration : 1h 49mn
Overall bit rate : 1 792 Kbps
Writing application : VirtualDubMod 1.5.10.2 (build 2542/release)
Writing library : VirtualDubMod build 2542/release
Original source form : MAX TORRENTZ
Copyright : SIGISMUNT

Video
ID : 0
Format : MPEG-4 Visual
Format profile : AdvancedSimple[@]L5
Format settings, BVOP : Yes
Format settings, QPel : No
Format settings, GMC : No warppoints
Format settings, Matrix : Default (H.263)
Codec ID : XVID
Codec ID/Hint : XviD
Duration : 1h 49mn
Bit rate : 1 334 Kbps
Width : 608 pixels
Height : 320 pixels
Display aspect ratio : 1.900
Frame rate : 23.976 fps
Resolution : 24 bits
Colorimetry : 4:2:0
Scan type : Progressive
Bits/(Pixel*Frame) : 0.286
Stream size : 1.02 GiB (74%)
Writing library : XviD 1.2.1 (UTC 2008-12-04)
che911 (424) 5 years
2
Audio
ID : 1
Format : AC-3
Format/Info : Audio Coding 3
Codec ID : 2000
Duration : 1h 49mn
Bit rate mode : Constant
Bit rate : 448 Kbps
Channel(s) : 6 channels
Channel positions : Front: L C R, Surround: L R, LFE
Sampling rate : 48.0 KHz
Stream size : 350 MiB (25%)
Alignment : Split accross interleaves
Interleave, duration : 42 ms (1.00 video frame)
Interleave, preload duration : 500 ms

http://www.imdb.com/title/tt1193138/

Screens:

http://www.postimg.com/image/12000/11392.jpg

http://www.postimg.com/image/12000/11393.jpg

http://www.postimg.com/image/12000/11394.jpg

http://www.postimg.com/image/12000/11395.jpg

ScreenCaps:

http://www.postimg.com/image/12000/11396.jpg
ananmi2 (34) 5 years
-5
fortknoxx (67) 5 years
2
A-9
V-8

--TY--
emp (129) 5 years
5
its all good and thanks m8 for this one
A-9
V-9
rohit_tatya (4) 4 years
0
A-10
V-10
ragho_r17 (48) 4 years
0
AWESOME MOVIE
George Rocks...!!!!!
ragho_r17 (48) 4 years
-1
a - 10
v - 10
jodha1992 (110) 4 years
-1






thanks seed and peer
anwarspn (19) 4 years
-1
thankssss
Achshar (43) 4 years
-2
not a supurb rip but a:9 v:8. thanks anyways :)
awthoridad (34) 4 years
-1
a9
v9
ameerthegreat (0) 4 years
-1
thnkxxxx
Arkradon (2) 4 years
-1
Thank you for this movie. It was fun :P
foxyrunner2008 (0) 4 years
-1
Umm... I'm new to this, and I'm not very computer-savvy. How do I download the movie I wanna watch? I set up a username/password. Now what? Where do I click? I just keep getting directed to other websites that require membership. :(
Dab1ad3 (11) 4 years
0
Fantastic movie.
rahulggg (-1) 2 years
-1
Greatttttttttttttttttttt Movie Hats off....
Post a comment

You need to log in before you can post comments.