Torrentz

Added 4 years ago

Up In The Air (2009) DVDRip XviD-MAXSPEED 16 torrent download locations

Download Direct Up In The Air (2009) DVDRip XviD-MAXSPEED
Sponsored Link
1337x.to Up In The Air 2009 DVDRip XviD MAXSPEED movies divx xvid
11 hours
vertor.com Up In The Air 2009 DVDRip XviD MAX movies
yesterday
thepiratebay.org Up In The Air 2009 DVDRip XviD MAX video movies
13 days
fastpiratebay.eu Up In The Air 2009 DVDRip XviD MAX video movies
13 days
torrenthound.com Up In The Air 2009 DVDRip XviD MAXSPEED movies
3 days
torlock.com Up In The Air 2009 DVDRip XviD MAXSPEED movies
4 hours
monova.org Up In The Air 2009 DVDRip XviD MAX movies
3 days
h33t.to Up In The Air 2009 DVDRip XviD MAXSPEED movies
4 hours
torrentreactor.net Up In The Air 2009 DVDRip XviD MAX movies dvdrip xvid 2009
3 days
fulldls.com Up In The Air 2009 DVDRip XviD MAX movies
21 days
torrentzap.com Up In The Air 2009 DVDRip XviD MAX movies
12 days
torrentdownloads.me Up In The Air 2009 DVDRip XviD MAXSPEED movies
6 days
torrents.net Up In The Air 2009 DVDRip XviD MAXSPEED movies
4 hours
torrentfunk.com Up In The Air 2009 DVDRip XviD MAXSPEED movies
3 days
limetorrents.cc Up In The Air 2009 DVDRip XviD MAX movies
12 days
bitsnoop.com Up In The Air 2009 DVDRip XviD MAX video movies
15 days
torrentproject.se Up In The Air 2009 DVDRip XviD MAXSPEED video dvdrip
3 hours

Using BitTorrent is legal, downloading copyrighted material isn’t. Be careful of what you download or face the consequences.

info_hash: 3f596326895891826e030aab756d6832b99a1359

Torrent Trackers

udp://open.demonii.com:1337/announce
1 hour 16 0
http://9.rarbg.com:2710/announce
1 hour 8 0
http://www.eddie4.nl:6969/announce
1 hour 1 0
http://tracker.nwps.ws:6969/announce
1 hour 1 0
http://bttrack.9you.com:80/:8080/announce
58 min 1 0
http://bigfoot1942.sektori.org:6969/announce
5 hours 1 0
http://tracker.torrenty.org:6969/announce
1 hour 1 0

This lists all the active trackers for this torrent, not just the ones embedded in the .torrent file.
You can get a µTorrent compatible list here. This will speed up your download.

1 Verify as a good torrent (20) Fake 0 Password 0 Low quality 6 Virus 0 We need your feedback! Please vote, it's quick and anonymous. Bookmark Bookmark
Size: 1,402 MB

Torrent Contents

Please note that this page does not hosts or makes available any of the listed filenames. You cannot download any of those files from here.
This list is automatically generated from a “.torrent” file which is simply metadata for the bittorrent protocol. You cannot download the “.torrent” file from here either. We don’t even cache it. If you are lucky the “.torrent” file might still be available on the pages where we found it. There is a list of URLs on top of this page where you might want to start your search. Those domains are completely independent; we have absolutely no control over them. Please don’t blame us if your monitor explodes.

User Comments (17)

che911 (424) 4 years
2
Up In The Air (2009) DVDRip XviD-MAX

Format : AVI
Format/Info : Audio Video Interleave
File size : 1.37 GiB
Duration : 1h 49mn
Overall bit rate : 1 792 Kbps
Writing application : VirtualDubMod 1.5.10.2 (build 2542/release)
Writing library : VirtualDubMod build 2542/release
Original source form : MAX TORRENTZ
Copyright : SIGISMUNT

Video
ID : 0
Format : MPEG-4 Visual
Format profile : AdvancedSimple[@]L5
Format settings, BVOP : Yes
Format settings, QPel : No
Format settings, GMC : No warppoints
Format settings, Matrix : Default (H.263)
Codec ID : XVID
Codec ID/Hint : XviD
Duration : 1h 49mn
Bit rate : 1 334 Kbps
Width : 608 pixels
Height : 320 pixels
Display aspect ratio : 1.900
Frame rate : 23.976 fps
Resolution : 24 bits
Colorimetry : 4:2:0
Scan type : Progressive
Bits/(Pixel*Frame) : 0.286
Stream size : 1.02 GiB (74%)
Writing library : XviD 1.2.1 (UTC 2008-12-04)
che911 (424) 4 years
2
Audio
ID : 1
Format : AC-3
Format/Info : Audio Coding 3
Codec ID : 2000
Duration : 1h 49mn
Bit rate mode : Constant
Bit rate : 448 Kbps
Channel(s) : 6 channels
Channel positions : Front: L C R, Surround: L R, LFE
Sampling rate : 48.0 KHz
Stream size : 350 MiB (25%)
Alignment : Split accross interleaves
Interleave, duration : 42 ms (1.00 video frame)
Interleave, preload duration : 500 ms

http://www.imdb.com/title/tt1193138/

Screens:

http://www.postimg.com/image/12000/11392.jpg

http://www.postimg.com/image/12000/11393.jpg

http://www.postimg.com/image/12000/11394.jpg

http://www.postimg.com/image/12000/11395.jpg

ScreenCaps:

http://www.postimg.com/image/12000/11396.jpg
ananmi2 (34) 4 years
-5
fortknoxx (67) 4 years
2
A-9
V-8

--TY--
emp (129) 4 years
5
its all good and thanks m8 for this one
A-9
V-9
rohit_tatya (4) 4 years
0
A-10
V-10
ragho_r17 (48) 4 years
0
AWESOME MOVIE
George Rocks...!!!!!
ragho_r17 (48) 4 years
-1
a - 10
v - 10
jodha1992 (110) 4 years
-1






thanks seed and peer
anwarspn (15) 4 years
-1
thankssss
Achshar (43) 4 years
-2
not a supurb rip but a:9 v:8. thanks anyways :)
awthoridad (34) 4 years
-1
a9
v9
ameerthegreat (0) 4 years
-1
thnkxxxx
Arkradon (2) 4 years
-1
Thank you for this movie. It was fun :P
foxyrunner2008 (0) 4 years
-1
Umm... I'm new to this, and I'm not very computer-savvy. How do I download the movie I wanna watch? I set up a username/password. Now what? Where do I click? I just keep getting directed to other websites that require membership. :(
Dab1ad3 (11) 4 years
0
Fantastic movie.
rahulggg (-1) 2 years
-1
Greatttttttttttttttttttt Movie Hats off....
Post a comment

You need to log in before you can post comments.

Related to up in the air 2009 dvdrip xvid

Up in the Air 2009 720p BrRip x264 YIFY » drama movies hd highres video
72 years700 MB 14416
Up in the Air 2009 1080p BrRip x264 YIFY » drama movies hd video
72 years1539 MB 349
Up In The Air 2009 720p BRRip x264 x0r » tv hd movies
26 days1940 MB 26157
Up 2009 iTALiAN AC3 DVDRip XviD GBM S o M » movies divx xvid
24 years1399 MB 182
Up 2009 DVDRip XviD DivXNL Team NL gesproken » movies divx xvid
25 years707 MB 170
Up In The Air 2009 720p BRRip x264 AC3 nesmeured » video hd movies
10 months2260 MB 123
Up In The Air FRENCH DVDRip XviD NERD » movies
14 years1401 MB 111
Up In The Air 2009 1080p BluRay x264 CiNEFiLE » video hd movies
4 years8130 MB 91
Up in The Air DVDRIP spanish » movies
14 years1668 MB 71
Up in the Air 2009 BRRip XviD RARBG » movies
46 months699 MB 70
Up 2009 iTALiAN DVDRip XviD T4P3 » movies
14 years700 MB 31
Up 2009 SWEDiSH DVDRip XviD KAFFEREP » movies
14 years705 MB 30
Up In The Air 2009 BRrip 720p x264 Torrent Force » movies h 264 x264
14 years3122 MB 31
Up in the Air 2009 DVDRip XviD AC3 peaSoup » movies divx xvid
1 1 year1391 MB 33
Up In The Air 2009 720p BluRay x264 SiNNERS » video hd movies
4 years4476 MB 21