Torrentz

Added 7 years ago

Legally Blonde (2001) - DVDRip - AC3 - ENG 15 download locations

Download Direct Legally Blonde (2001) - DVDRip - AC3 - ENG
Sponsored Link
1337x.to Legally Blonde 2001 DVDRip XviD AGENT movies divx xvid
20 hours
kat.cr Legally Blonde 2001 DVDRip XviD movies
13 hours
thepiratebay.org Legally Blonde 2001 DVDRip AC3 ENG video movies
1 year
torrenthound.com Legally Blonde 2001 DVDRip AC3 ENG movies comedy
6 days
torlock.com Legally Blonde 2001 DVDRip AC3 ENG movies
9 hours
yourbittorrent.com Legally Blonde DVDRip AC3 ENG movies
9 days
monova.org Legally Blonde 2001 DVDRip AC3 ENG movies
3 days
torrentreactor.com Legally Blonde 2001 DVDRip AC3 ENG movies comedy dvdrip ac3 2001
10 months
seedpeer.me Legally Blonde 2001 DVDRip AC3 ENG movies comedy
1 year
torrentdownloads.me Legally Blonde 2001 DVDRip AC3 ENG comedy
3 days
torrentfunk.com Legally Blonde 2001 DVDRip AC3 ENG movies
3 days
limetorrents.cc Legally Blonde 2001 DVDRip XviD AGENT movies
9 hours
bitsnoop.com Legally Blonde 2001 DVDRip AC3 ENG video movies
18 days
isohunt.to Legally Blonde 2001 DVDRip AC3 ENG movies isohunt rulezzz
11 hours
torrentproject.se Legally Blonde 2001 DVDRip AC3 ENG video dvdrip
10 hours

Using BitTorrent is legal, downloading copyrighted material isn’t. Be careful of what you download or face the consequences.
You need a client like qBittorrent, Deluge or Transmission to download.

info_hash: b473e1183822c01457a35afbbb384fea55c91ca2

Trackers

http://tracker.bittorrent.am/announce
53 min 1 0
http://tracker.dler.org:6969/announce
32 min 1 0

You can get a µTorrent compatible list here.

1 Verify as a good torrent (2) Fake 0 Password 0 Low quality 0 Virus 0 We need your feedback! Please vote, it's quick and anonymous. Bookmark Bookmark
Size: 800 MB

Torrent Contents

Please note that this page does not hosts or makes available any of the listed filenames. You cannot download any of those files from here.

User Comments (2)

Buntyamara (644) 6 years
0
General
Complete name : Legally Blonde (2001) - DVDRip - AC3 - ENG.avi
Format : AVI
Source : PAL DVD
File size : 800 MiB
Duration : 1h 32mn
Overal bit rate : 1216 Kbps
Language : English

Video
Format : XVID
Duration : 1h 32mn
Bit rate : 761 Kbps
Width : 624 pixels
Height : 272 pixels
Display aspect ratio : 2.25
Frame rate : 25.000 fps
Resolution : 8 bits
Colorimetry : 4:2:0
Scan type : Progressive
Bits/(Pixel*Frame) : 0.179
Stream size : 501 MiB (63%)

Audio
Format : AC-3
Format/Info : Audio Coding 3
Codec ID : 2000
Duration : 1h 32mn
Bit rate mode : Constant
Bit rate : 448 Kbps
Channel(s) : 6 channels
Channel positions : Front: L C R, Rear: L R, LFE
Sampling rate : 48.0 KHz
Stream size : 295 MiB (37%)

Buntyamara (644) 6 years
0
Screenshots:

http://i492.photobucket.com/albums/rr281/206andy206/vlcsnap-21478.png
http://i492.photobucket.com/albums/rr281/206andy206/vlcsnap-22317.png
http://i492.photobucket.com/albums/rr281/206andy206/vlcsnap-22497.png
http://i492.photobucket.com/albums/rr281/206andy206/vlcsnap-24669.png
Post a comment

You need to log in before you can post comments.

Related to legally blonde 2001

Блондинка в законе Legally Blonde 2001 BDRip AVC от ExKinoRay »
24 years2824 MB 60
Legally Blonde 2001 DVDRip dubbing » movies video isohunt rulezzz dvdrip
24 years1399 MB 50
Legally Blonde 2001 720p BrRip x264 YIFY » movies hd video
83 years700 MB 53
Блондинка в законе Legally Blonde 2001 ВDRip720р от FREEISLAND » video movies bdrip 720p 1080p 2001 blonde 480p isohunt rulezzz hdrip
25 years4478 MB 10
Блондинка в законе Legally Blonde 2001 BDRip от HQCLUB » video movies isohunt rulezzz
25 years1485 MB 10
Legally Blonde 2001 PL DVDRip XviD POLELiTE » video dvdrip
2Pending10
Legally Blonde 2001 1080p BrRip x264 YIFY » movies hd
73 years1276 MB 11
Legally Blonde 2001 viD iNT YYddr » movies
10 years713 MB 00
Legally Blonde 2001 NL FR Subs » movies dvd film extras video dvdr
10 years2047 MB 00
Legally Blonde 2001 Reese Witherspoon, Luke Wilson » movies video
27 years609 MB 00
Legally Blonde 2001 SWESUB DVDRip XviD Pride86 » movies video
7 years1399 MB 00
Legally Blonde 2001 Swesub Xvid SpanskaFlugan » movies
7 years701 MB 00
Legally Blonde SE 2001 DVDRip XviD AC3 WAF rarbg com » movies xvid
7 years1401 MB 00
Legally Blonde 2001 Multisubs PAL DVDR DeDa » movies
7 years4324 MB 00
Legally Blonde 2001 COMPLETE PAL DVDR EFTERLYST » movies
26 years4377 MB 00
sunny leone 0s, the nick 0s, captain america 2016 0s, czech amateur 1s, 2016 movie 0s, blindspot 1s, dublado 1s, vali 0s, jungle book 2016 movie 2s, white collar s05e01 0s