Torrentz

Added 6 years ago

Legally Blonde (2001) - DVDRip - AC3 - ENG 21 download locations

Download Direct Legally Blonde (2001) - DVDRip - AC3 - ENG
Sponsored Link
1337x.to Legally Blonde 2001 DVDRip XviD AGENT movies divx xvid
13 hours
kickass.to Legally Blonde 2001 DVDRip XviD movies
8 hours
katproxy.com Legally Blonde 2001 DVDRip XviD movies
8 hours
extratorrent.cc Legally Blonde 2001 DVDRip AC3 ENG movies comedy
1 hour
vertor.com Legally Blonde 2001 DVDRip AC3 ENG movies
13 hours
thepiratebay.org Legally Blonde 2001 DVDRip AC3 ENG video movies
2 months
torrenthound.com Legally Blonde 2001 DVDRip AC3 ENG movies comedy
3 days
torlock.com Legally Blonde 2001 DVDRip AC3 ENG movies
8 hours
demonoid.pw Legally Blonde 2001 DVDRip AC3 ENG movies
5 hours
yourbittorrent.com Legally Blonde DVDRip AC3 ENG movies
6 hours
monova.org Legally Blonde 2001 DVDRip AC3 ENG movies
3 days
h33t.to Legally Blonde 2001 DVDRip XviD movies
7 hours
torrentreactor.net Legally Blonde 2001 DVDRip AC3 ENG movies comedy dvdrip ac3 2001
3 days
seedpeer.me Legally Blonde 2001 DVDRip AC3 ENG movies comedy
2 months
torrentzap.com Legally Blonde 2001 DVDRip AC3 ENG movies
2 months
torrentdownloads.me Legally Blonde 2001 DVDRip AC3 ENG comedy
3 days
torrentfunk.com Legally Blonde 2001 DVDRip AC3 ENG movies
2 hours
limetorrents.cc Legally Blonde 2001 DVDRip XviD AGENT movies
14 hours
bitsnoop.com Legally Blonde 2001 DVDRip AC3 ENG video movies
2 months
isohunt.to Legally Blonde 2001 DVDRip AC3 ENG movies 2001 ac3 english dvdrip
19 days
torrentproject.se Legally Blonde 2001 DVDRip AC3 ENG video dvdrip
5 hours

Using BitTorrent is legal, downloading copyrighted material isn’t. Be careful of what you download or face the consequences.

info_hash: b473e1183822c01457a35afbbb384fea55c91ca2

Trackers

udp://open.demonii.com:1337/announce
1 hour 8 0

You can get a µTorrent compatible list here.

2 Verify as a good torrent (2) Fake 0 Password 0 Low quality 0 Virus 0 We need your feedback! Please vote, it's quick and anonymous. Bookmark Bookmark
Size: 800 MB

Torrent Contents

Please note that this page does not hosts or makes available any of the listed filenames. You cannot download any of those files from here.

User Comments (2)

Buntyamara (644) 5 years
0
General
Complete name : Legally Blonde (2001) - DVDRip - AC3 - ENG.avi
Format : AVI
Source : PAL DVD
File size : 800 MiB
Duration : 1h 32mn
Overal bit rate : 1216 Kbps
Language : English

Video
Format : XVID
Duration : 1h 32mn
Bit rate : 761 Kbps
Width : 624 pixels
Height : 272 pixels
Display aspect ratio : 2.25
Frame rate : 25.000 fps
Resolution : 8 bits
Colorimetry : 4:2:0
Scan type : Progressive
Bits/(Pixel*Frame) : 0.179
Stream size : 501 MiB (63%)

Audio
Format : AC-3
Format/Info : Audio Coding 3
Codec ID : 2000
Duration : 1h 32mn
Bit rate mode : Constant
Bit rate : 448 Kbps
Channel(s) : 6 channels
Channel positions : Front: L C R, Rear: L R, LFE
Sampling rate : 48.0 KHz
Stream size : 295 MiB (37%)

Buntyamara (644) 5 years
0
Screenshots:

http://i492.photobucket.com/albums/rr281/206andy206/vlcsnap-21478.png
http://i492.photobucket.com/albums/rr281/206andy206/vlcsnap-22317.png
http://i492.photobucket.com/albums/rr281/206andy206/vlcsnap-22497.png
http://i492.photobucket.com/albums/rr281/206andy206/vlcsnap-24669.png
Post a comment

You need to log in before you can post comments.