Torrentz

Added 6 years ago

Fantastic Four 2 [DVDrip] [Dual Audio] [Eng-Hindi] 15 download locations

Download Direct Fantastic Four 2 [DVDrip] [Dual Audio] [Eng-Hindi]
Sponsored Link
1337x.to Fantastic Four 2 DVDrip Dual Audio Eng Hindi movies divx xvid
21 hours
kat.cr Fantastic Four 2 DVDrip Dual Audio Eng Hindi movies
15 hours
thepiratebay.org Fantastic Four 2 DVDrip Dual Audio Eng Hindi video movies
1 year
torrenthound.com Fantastic Four 2 DVDrip Dual Audio Eng Hindi video movies
yesterday
torlock.com Fantastic Four 2 movies
2 days
yourbittorrent.com Fantastic Four 2 movies
yesterday
monova.org Fantastic Four 2 DVDrip Dual Audio Eng Hindi movies
yesterday
h33t.to Fantastic Four 2 DVDrip Dual Audio Eng Hindi movies
10 months
torrentreactor.com Fantastic Four 2 DVDrip Dual Audio Eng Hindi ~BONIIN movies action dvdrip
9 months
torrentdownloads.me Fantastic Four 2 dvdrip dual Audio eng hindi
21 hours
torrents.net Fantastic Four 2 DVDrip Dual Audio Eng Hindi movies
yesterday
torrentfunk.com Fantastic Four 2 movies
yesterday
limetorrents.cc Fantastic Four 2 DVDrip Dual Audio Eng Hindi movies
4 days
isohunt.to Fantastic Four 2 DVDrip Dual Audio Eng Hindi ~BONIIN movies isohunt rulezzz
yesterday
torrentproject.se Fantastic Four 2 DVDRip Dual Audio Eng Hindi video dvdrip
yesterday

Using BitTorrent is legal, downloading copyrighted material isn’t. Be careful of what you download or face the consequences.
You need a client like qBittorrent, Deluge or Transmission to download.

info_hash: c735c9b23d2a13ea60ce3b6dd59f6dc22829e2ed

Trackers

http://tracker.bittorrent.am/announce
10 hours 1 0

You can get a µTorrent compatible list here.

1 Verify as a good torrent (12) Fake 0 Password 0 Low quality 0 Virus 0 We need your feedback! Please vote, it's quick and anonymous. Bookmark Bookmark
Size: 736 MB

Torrent Contents

Please note that this page does not hosts or makes available any of the listed filenames. You cannot download any of those files from here.

User Comments (8)

DevilDoc (88) 6 years
3
Any Comments Friends???? :)
boniin (273) 6 years
5
Complete name : Fantastic Four - Rise of the Silver Surfer [2007] [DVDrip] [Dual Audio] [Eng-Hindi].avi
Format : AVI
Format/Info : Audio Video Interleave
Format profile : OpenDML
File size : 736 MiB
Duration : 1h 28mn
Overall bit rate : 1 168 Kbps
Writing application : AVI-Mux GUI 1.17.8, Aug 30 2008 12:36:58

Video
ID : 0
Format : MPEG-4 Visual
Format profile : AdvancedSimple@L5
Format settings, BVOP : Yes
Format settings, QPel : No
Format settings, GMC : No warppoints
Format settings, Matrix : Default (H.263)
Muxing mode : Packed bitstream
Codec ID : XVID
Codec ID/Hint : XviD
Duration : 1h 28mn
Bit rate : 973 Kbps
Width : 640 pixels
Height : 272 pixels
Display aspect ratio : 2.35:1
Frame rate : 25.000 fps
Resolution : 24 bits
Colorimetry : 4:2:0
Scan type : Progressive
Bits/(Pixel*Frame) : 0.224
Stream size : 613 MiB (83%)
Writing library : XviD 1.1.2 (UTC 2006-11-01)

Audio #1
ID : 1
Format : MPEG Audio
Format version : Version 1
Format profile : Layer 3
Format_Settings_Mode : Joint stereo / MS Stereo
Codec ID : 55
Codec ID/Hint : MP3
Duration : 1h 23mn
Bit rate mode : Constant
Bit rate : 32.0 Kbps
Channel(s) : 2 channels
Sampling rate : 48.0 KHz
Resolution : 16 bits
Stream size : 38.3 MiB (5%)
Alignment : Aligned on interleaves
Interleave, duration : 25 ms (0.63 video frame)
Interleave, preload duration : 96 ms
Title : Hindi
Writing library : LAME3.96.1

Audio #2
ID : 2
Format : MPEG Audio
Format version : Version 1
Format profile : Layer 3
Format_Settings_Mode : Joint stereo / MS Stereo
Codec ID : 55
Codec ID/Hint : MP3
Duration : 1h 28mn
Bit rate mode : Variable
Bit rate : 120 Kbps
Nominal bit rate : 122 Kbps
Channel(s) : 2 channels
Sampling rate : 48.0 KHz
Resolution : 16 bits
Stream size : 75.4 MiB (10%)
Alignment : Aligned on interleaves
Interleave, duration : 24 ms (0.60 video frame)
Interleave, preload duration : 70 ms
Writing library : LAME3.96r
Encoding settings : -m j -V 4 -q 3 -
boniin (273) 6 years
3
My next upload is ink heart dual audio
spider man 3 dual audio
death race


Any buddy want Final Destination 1,2,3,4 Brrip dual audio [Eng-Hindi]type this web address
http://www.ahashare.com/torrents-details.php?id=39132
DevilDoc (88) 6 years
0
Thanks For The Info boniin :)

Gr88 work...keep it up man!!!

Plzz upload all 3 spiderman dual audio movies if you have them..... :)

We're waiting for death race and Ink Heart.....Thanks in advance :)
rumibhai1234 (179) 6 years
0
thanx bro
rockak47 (557) 5 years
6
A=10/10
V=10/10

Some Screenshots:-
http://img411.imageshack.us/img411/5071/fantasticfour2dvdripdua.jpg
http://img697.imageshack.us/img697/5071/fantasticfour2dvdripdua.jpg
http://img59.imageshack.us/img59/5071/fantasticfour2dvdripdua.jpg
http://img413.imageshack.us/img413/5071/fantasticfour2dvdripdua.jpg
http://img694.imageshack.us/img694/5071/fantasticfour2dvdripdua.jpg
hasan44 (58) 5 years
-1
boniin plz upload quantam of solace in hindi plz plz plz....
NADIM9997154 (7) 4 years
0
audio 10/9
video 10/9
good movie and good print
Post a comment

You need to log in before you can post comments.

movies malayalam 0s, game of thrones season 5 0s, the blacklist 0s, movies 2016 1s, ted 2012 720p 0s, epub 2s, her 1s, arrow s04 2s, izzy 1s, mr pickles 1s