Torrentz

Added 5 years ago

Hush.2009.DVDRIP.XviD-ZEKTORM 20 torrent download locations

Download Direct Hush.2009.DVDRIP.XviD-ZEKTORM
Sponsored Link
1337x.to Hush 2009 DVDRIP XviD ZEKTORM movies divx xvid
22 hours
demonoid.pw Hush 2009 DVDRIP XviD ZEKTORM movies
1 hour
kickass.to Hush 2009 DVDRIP XviD ZEKTORM movies
1 month
katproxy.com Hush 2009 DVDRIP XviD ZEKTORM movies
1 month
extratorrent.cc Hush 2009 DVDRIP XviD ZEKTORM movies action
10 hours
thepiratebay.org Hush 2009 DVDRIP XviD ZEKTORM video movies
10 days
fastpiratebay.eu Hush 2009 DVDRIP XviD ZEKTORM video movies
10 days
torrenthound.com Hush 2009 DVDRIP XviD ZEKTORM movies action
17 hours
torlock.com Hush 2009 DVDRIP XviD ZEKTORM movies
12 hours
monova.org Hush 2009 DVDRIP XviD ZEKTORM movies
15 hours
h33t.to Hush 2009 DVDRIP XviD ZEKTORM movies
15 hours
torrentreactor.net Hush 2009 DVDRIP XviD movies action dvdrip xvid 2009
16 hours
fulldls.com Hush 2009 DVDRIP XviD movies
18 days
seedpeer.me Hush 2009 DVDRIP XviD ZEKTORM movies action
8 days
torrentzap.com Hush 2009 DVDRIP XviD movies
9 days
torrentdownloads.me Hush 2009 DVDRIP XviD ZEKTORM action
3 days
torrentbit.net Hush 2009 DVDRIP XviD ZEKTORM movies
22 hours
torrentfunk.com Hush 2009 DVDRIP XviD ZEKTORM movies
14 hours
limetorrents.cc Hush 2009 DVDRIP XviD ZEKTORM movies
9 days
bitsnoop.com Hush 2009 DVDRIP XviD ZEKTORM video movies
12 days
torrentproject.se Hush 2009 DVDRip XviD ZEKTORM video dvdrip
13 hours

Using BitTorrent is legal, downloading copyrighted material isn’t. Be careful of what you download or face the consequences.

info_hash: c89d27324545785c9c43fdf67aece8727c76aa8c

Torrent Trackers

udp://open.demonii.com:1337/announce
2 hours 1 0

This lists all the active trackers for this torrent, not just the ones embedded in the .torrent file.
You can get a µTorrent compatible list here. This will speed up your download.

3 Verify as a good torrent (12) Fake 0 Password 0 Low quality 0 Virus 0 We need your feedback! Please vote, it's quick and anonymous. Bookmark Bookmark
Size: 701 MB

Torrent Contents

Please note that this page does not hosts or makes available any of the listed filenames. You cannot download any of those files from here.
This list is automatically generated from a “.torrent” file which is simply metadata for the bittorrent protocol. You cannot download the “.torrent” file from here either. We don’t even cache it. If you are lucky the “.torrent” file might still be available on the pages where we found it. There is a list of URLs on top of this page where you might want to start your search. Those domains are completely independent; we have absolutely no control over them. Please don’t blame us if your monitor explodes.

User Comments (13)

stephyle (105) 5 years
0
thanks man
simply perfect
as always
video: 10
audio: 10
damian26 (113) 5 years
0
Awesome quality
good film
Audio: 10
Video: 10
thanks
carl30 (114) 5 years
-1
Great
Top quality
nice movie
thx for up!
promage88 (19) 5 years
0
Thx for this great movie...

Best quality

Best Sound

Nothing more than a good rip :)
samumathew (-24) 5 years
0
its a nice movie...
gud one...
a 10
v 10...

but i don think its action..
its maybe horror, thriller...

SAMU
BlackComma (209) 5 years
2
Title : Hush
Year : 2009
Genre : Thriller
iMDB URL : http://www.imdb.com/title/tt1093369/

Complete name : H-Z **** RM.avi
Format : AVI
File size : 701 MiB
Duration : 1h 27mn
Overall bit rate : 1120 Kbps
Source : DVD PAL

Video
Format : MPEG-4 Visual
Format profile : Streaming Video@L1
Codec ID : XVID
Codec ID/Hint : XviD
Duration : 1h 27mn
Bit rate : 1002 Kbps
Width : 720 pixels
Height : 304 pixels
Display aspect ratio : 2.35
Frame rate : 25.000 fps
Resolution : 24 bits
Colorimetry : 4:2:0
Scan type : Progressive
Bits/(Pixel*Frame) : 0.183
Stream size : 627 MiB (89%)
Writing library : XviD

Audio
Format : MPEG Audio
Format version : Version 1
Format profile : Layer 3
Codec ID : 55
Codec ID/Hint : MP3
Duration : 1h 27mn
Bit rate mode : Variable
Bit rate : 105 Kbps
Minimum bit rate : 128 Kbps
Channel(s) : 2 channels
Sampling rate : 48.0 KHz
Resolution : 16 bits
Stream size : 65.8 MiB (9%)
Writing library : LAME3.98r
Encoding settings : ABR
POISON_X (109) 5 years
1
User Rating:
6.3/10 392 votes
StrykerIsland (18) 5 years
2
Awesome movie, nice surprise.
CaesaRLegion (4) 5 years
0
Thanks 2 Uploader
alias_me (42) 5 years
0
Great movie, thanx :)
metal13 (-1) 5 years
-1
good print

but the movie sucks..
QtotheE (7) 5 years
0
thx for sharing
Post a comment

You need to log in before you can post comments.

Related to hush 2009 dvdrip xvid

Hush 2009 FRENCH DVDRip XviD COGiTO MZISYS »
5 years699 MB 31
Hush 2009 1CD Horror DVDRip xvid nEHAL » movies
14 years704 MB 20
Hush DVDrip XViD Español Spanish » movies dubbed
12 years1289 MB 21
Hush 2008 DVDRiP Xvid EXELENT mazysmadhouse net » movies
5 years698 MB 00
Hush 2008 DVDRiP Xvid » movies
5 years698 MB 00
Hush 2008 DVDRiP Xvid EXELENT » movies
5 years698 MB 00
Hush 2008 DVDRip XviD DiVERSE » movies
5 years707 MB 00
Hush 2008 DVDRip XviD DiVERSE » movies
5 years700 MB 00
Hush 2008 DVDRip XviD DiVERSE » movies
5 years726 MB 00
Hush 2008 DVDRip XviD DiVERSE » movies divx xvid
15 years726 MB 01
Hush 2008 DVDRip XviD DiVERSE » movies video
5 years726 MB 00
Hush 2008 DVDRip XviD DiVERSE » movies
5 years707 MB 00
Hush 2008 DVDRip XviD DiVERSE avi » movies
5 years700 MB 00