Torrentz

Added 7 years ago

Hush.2009.DVDRIP.XviD-ZEKTORM 15 download locations

Download Direct Hush.2009.DVDRIP.XviD-ZEKTORM
Sponsored Link
1337x.to Hush 2009 DVDRIP XviD ZEKTORM movies divx xvid
9 hours
kat.cr Hush 2009 DVDRIP XviD ZEKTORM movies
11 days
thepiratebay.org Hush 2009 DVDRIP XviD ZEKTORM video movies
1 year
torrenthound.com Hush 2009 DVDRIP XviD ZEKTORM movies action
12 days
torlock.com Hush 2009 DVDRIP XviD ZEKTORM movies
3 days
yourbittorrent.com Hush 2009 DVDRIP XviD ZEKTORM movies
2 months
monova.org Hush 2009 DVDRIP XviD ZEKTORM movies
3 days
torrentreactor.com Hush 2009 DVDRIP XviD movies action dvdrip xvid 2009
1 year
seedpeer.me Hush 2009 DVDRIP XviD ZEKTORM movies action
1 year
torrentdownloads.me Hush 2009 DVDRIP XviD ZEKTORM action
2 days
torrentbit.net Hush 2009 DVDRIP XviD ZEKTORM movies
11 days
torrentfunk.com Hush 2009 DVDRIP XviD ZEKTORM movies
2 days
limetorrents.cc Hush 2009 DVDRIP XviD ZEKTORM movies
2 days
bitsnoop.com Hush 2009 DVDRIP XviD ZEKTORM video movies
2 months
torrentproject.se Hush 2009 DVDRip XviD ZEKTORM video dvdrip
3 days

Using BitTorrent is legal, downloading copyrighted material isn’t. Be careful of what you download or face the consequences.
You need a client like qBittorrent, Deluge or Transmission to download.

info_hash: c89d27324545785c9c43fdf67aece8727c76aa8c

Trackers

http://www.opentrackr.org/announce
1 hour 0 1

You can get a µTorrent compatible list here.

1 Verify as a good torrent (12) Fake 0 Password 0 Low quality 0 Virus 0 We need your feedback! Please vote, it's quick and anonymous. Bookmark Bookmark
Size: 701 MB

Torrent Contents

Please note that this page does not hosts or makes available any of the listed filenames. You cannot download any of those files from here.

User Comments (13)

stephyle (105) 7 years
0
thanks man
simply perfect
as always
video: 10
audio: 10
damian26 (113) 7 years
0
Awesome quality
good film
Audio: 10
Video: 10
thanks
carl30 (114) 7 years
-1
Great
Top quality
nice movie
thx for up!
promage88 (19) 7 years
0
Thx for this great movie...

Best quality

Best Sound

Nothing more than a good rip :)
samumathew (-24) 7 years
0
its a nice movie...
gud one...
a 10
v 10...

but i don think its action..
its maybe horror, thriller...

SAMU
BlackComma (209) 7 years
2
Title : Hush
Year : 2009
Genre : Thriller
iMDB URL : http://www.imdb.com/title/tt1093369/

Complete name : H-Z **** RM.avi
Format : AVI
File size : 701 MiB
Duration : 1h 27mn
Overall bit rate : 1120 Kbps
Source : DVD PAL

Video
Format : MPEG-4 Visual
Format profile : Streaming Video@L1
Codec ID : XVID
Codec ID/Hint : XviD
Duration : 1h 27mn
Bit rate : 1002 Kbps
Width : 720 pixels
Height : 304 pixels
Display aspect ratio : 2.35
Frame rate : 25.000 fps
Resolution : 24 bits
Colorimetry : 4:2:0
Scan type : Progressive
Bits/(Pixel*Frame) : 0.183
Stream size : 627 MiB (89%)
Writing library : XviD

Audio
Format : MPEG Audio
Format version : Version 1
Format profile : Layer 3
Codec ID : 55
Codec ID/Hint : MP3
Duration : 1h 27mn
Bit rate mode : Variable
Bit rate : 105 Kbps
Minimum bit rate : 128 Kbps
Channel(s) : 2 channels
Sampling rate : 48.0 KHz
Resolution : 16 bits
Stream size : 65.8 MiB (9%)
Writing library : LAME3.98r
Encoding settings : ABR
POISON_X (109) 7 years
1
User Rating:
6.3/10 392 votes
StrykerIsland (18) 6 years
2
Awesome movie, nice surprise.
CaesaRLegion (4) 6 years
0
Thanks 2 Uploader
alias_me (42) 6 years
0
Great movie, thanx :)
metal13 (-1) 6 years
-1
good print

but the movie sucks..
QtotheE (7) 6 years
0
thx for sharing
Post a comment

You need to log in before you can post comments.

Related to hush 2009 dvdrip

Hush 2009 FRENCH DVDRip XviD COGiTO » movies dvdrip xvid 2009 action thriller video
26 years699 MB 151
Hush 2009 DvDrip NLsub code kako » movies divx xvid
36 years702 MB 00
Hush 2009 DVDRIP Jaybob » movies
26 years840 MB 00
WiTa Hush German 2009 DVDRiP XviD CRiTiCAL » movies
26 years1001 MB 00
most wanted Hush German 2009 DVDRiP XviD CRiTiCAL » movies
26 years1001 MB 00
Hush German 2009 DVDRiP XviD CRiTiCAL » movies
6 years1001 MB 00
Hush German 2009 DVDRiP XviD CRiTiCAL » movies
6 years1001 MB 00
Hush 2009 STV FRENCH DVDRip XviD COGiTO tracker surfer fr torrent TRACKER SURFER FR french »
26 years699 MB 00
Hush 2009 STV FRENCH DVDRip XviD COGiTO Up Djante » movies
26 years699 MB 00
Hush 2009 german DVDRip xvid » movies
26 years699 MB 00
Hush 2009 FRENCH DVDRip XviD COGiTO avi » anime
26 years699 MB 00
Hush 2009 DVDRip XviD Emery » movies divx xvid
16 years704 MB 00
Hush 2009 DvdRip Xvid 1337x X » movies divx xvid
16 years699 MB 01
Hush 2009 DvDrip XviD NoRar » movies
6 years699 MB 00
tamil movies 2016 hindi 3s, wwe games pc 1s, movie 3s, hindi 0s, real 1s, om shanti 3s, bad moms 1s, triple 9 3s, jason bourne 0s, 13 hours the secret soldiers of benghazi 2s