Torrentz

Added 6 years ago

Malena [2000][DVDRIP-ITA][Uncut] 15 torrent download locations

Download Direct Malena [2000][DVDRIP-ITA][Uncut]
Sponsored Link
kickass.to Malena 2000 DVDRIP ITA Uncut movies
1 month
katproxy.com Malena 2000 DVDRIP ITA Uncut movies
1 month
extratorrent.cc Malena 2000 ITAUncut movies drama
15 hours
vertor.com Malena 2000 DVDRIP ITA Uncut movies
2 hours
thepiratebay.org Malena 2000 DVDRIP ITA Uncut video movies
11 days
fastpiratebay.eu Malena 2000 DVDRIP ITA Uncut video movies
11 days
torrenthound.com Malena 2000 DVDRIP ITA Uncut movies
yesterday
monova.org Malena 2000 DVDRIP ITA Uncut movies
yesterday
h33t.to Malena 2000 DVDRIP ITA Uncut movies
yesterday
torrentreactor.net Malena 2000 DVDRIP ITA Uncut movies drama dvdrip 2000
yesterday
seedpeer.me malena 2000 dvdrip ita uncut movies drama
9 days
torrentzap.com Malena 2000 DVDRIP ITA Uncut movies
11 days
torrentdownloads.me Malena 2000 DVDRIP ITA Uncut drama
5 days
torrentfunk.com Malena movies
yesterday
isohunt.to Malena 2000 DVDRIP ITA Uncut movies 2000 italian italiano dvdrip
1 month
torrentproject.se Malena 2000 DVDRip ITA Uncut video dvdrip
yesterday

Using BitTorrent is legal, downloading copyrighted material isn’t. Be careful of what you download or face the consequences.

info_hash: d2e07daf27c860231b955cbe1f6a6da89c4b0b97

Torrent Trackers

udp://open.demonii.com:1337/announce
53 min 28 0
http://tracker.nwps.ws:6969/announce
2 hours 2 0
http://www.eddie4.nl:6969/announce
43 min 1 0
http://bigfoot1942.sektori.org:6969/announce
23 min 1 0

This lists all the active trackers for this torrent, not just the ones embedded in the .torrent file.
You can get a µTorrent compatible list here. This will speed up your download.

1 Verify as a good torrent (18) Fake 0 Password 0 Low quality 0 Virus 0 We need your feedback! Please vote, it's quick and anonymous. Bookmark Bookmark
Size: 1,251 MB

Torrent Contents

Please note that this page does not hosts or makes available any of the listed filenames. You cannot download any of those files from here.
This list is automatically generated from a “.torrent” file which is simply metadata for the bittorrent protocol. You cannot download the “.torrent” file from here either. We don’t even cache it. If you are lucky the “.torrent” file might still be available on the pages where we found it. There is a list of URLs on top of this page where you might want to start your search. Those domains are completely independent; we have absolutely no control over them. Please don’t blame us if your monitor explodes.

User Comments (9)

surper88west (83) 6 years
1
I like the music of the movie
Great Thanks
lucky_devil99 (6) 6 years
0
quitly is good.I like dis movie.great thanks..
charlesfire2 (157) 5 years
0
i like the movie but its not in english
a:9
v:9
keksiboy (88) 5 years
1
Dang Monica Bellucci is so sexy.......
girishvarma26 (19) 5 years
0
can any one post the english sub titles of this movie
jesusseamus (21) 4 years
1
http://subscene.com/Malena-Malna/subtitles-5956.aspx

For englsh subtitles and many other languages
prdpg (5) 4 years
0
please seed any one please i am st-rucked at 98.2 % please seed seed seed seed seed seed seed seed
thank you...!!
killgag007 (61) 4 years
0
Thanx @ jesusseamus
for the subtitles
isuru_jr (75) 3 years
1
A/V 8/7

INFO
----
General
Complete name : Malena [2000][DVDRIP-ITA][Uncut].avi
Format : AVI
File size : 1.22 GiB
Duration : 1h 43mn
Overall bit rate : 1 691 Kbps
Writing application : VirtualDubMod 1.5.4.1 (build 2178/release)
Format : MPEG-4 Visual
Codec ID : DX50
Duration : 1h 43mn
Bit rate : 1 236 Kbps
Width : 624 pixels
Height : 256 pixels
Display aspect ratio : 2.40:1
Frame rate : 25.000 fps
Bit depth : 8 bits
Scan type : Progressive
Bits/(Pixel*Frame) : 0.309
Stream size : 914 MiB (73%)
Writing library : DivX 6.0.0 (UTC 2005-06-15)

Audio
Format : AC-3
Codec ID : 2000
Duration : 1h 43mn
Bit rate mode : Constant
Bit rate : 448 Kbps
Channel(s) : 6 channels
Channel positions : Front: L C R, Side: L R, LFE
Sampling rate : 48.0 KHz
Bit depth : 16 bits
Stream size : 331 MiB (26%)
Language : Italian
Post a comment

You need to log in before you can post comments.

Related to malena 2000 dvdrip ita uncut

Malena 2000 DVDRIP ITA Uncut By xL Best quality » movies video
4 years1250 MB 11
Malena 2000 DVDRIP ITA Uncut avi » movies
1 year1250 MB 10
Malena 2000 Dvdrip Ita Alb Sub htcomm » movies video
5 years700 MB 00
Malena 2000 DVDRIP ITA Uncut » xxx
14 years1250 MB 01
Malena 2000 DVDRIP ITA Uncut ~ VARUNKALSE avi » movies
3 years1250 MB 00
Malena 2000 DVDRIP ITA Uncut » movies
Pending01