Torrentz

Added 5 years ago

Ninja Assassin (2009) DVDRip XviD-MAXSPEED 16 download locations

Download Direct Ninja Assassin (2009) DVDRip XviD-MAXSPEED
Sponsored Link
1337x.to Ninja Assassin 2009 DVDRip XviD MAXSPEED movies divx xvid
17 hours
extratorrent.cc Ninja Assassin 2009 DVDRip XviD MAXSPEED movies action
5 hours
thepiratebay.org Ninja Assassin 2009 DVDRip XviD MAX video movies
2 months
torrenthound.com Ninja Assassin 2009 DVDRip XviD MAXSPEED movies
yesterday
torlock.com Ninja Assassin 2009 DVDRip XviD MAXSPEED movies
yesterday
yourbittorrent.com Ninja Assassin DVDRip XviD movies
yesterday
monova.org Ninja Assassin 2009 DVDRip XviD MAX movies
yesterday
h33t.to Ninja Assassin 2009 DVDRip XviD MAXSPEED movies
yesterday
fulldls.com Ninja Assassin 2009 DVDRip XviD MAXSPEED movies
3 months
seedpeer.me Ninja Assassin 2009 DVDRip XviD MAX movies martial arts verified
2 months
torrentdownloads.me Ninja Assassin 2009 DVDRip XviD MAXSPEED movies
yesterday
torrents.net Ninja Assassin 2009 DVDRip XviD MAXSPEED movies
yesterday
torrentfunk.com Ninja Assassin 2009 DVDRip XviD MAXSPEED movies
yesterday
limetorrents.cc Ninja Assassin 2009 DVDRip XviD MAXSPEED XtremeTorrents movies
yesterday
bitsnoop.com Ninja Assassin 2009 DVDRip XviD MAXSPEED video movies
2 months
torrentproject.se Ninja Assassin 2009 DVDRip XviD MAXSPEED video dvdrip
yesterday

Using BitTorrent is legal, downloading copyrighted material isn’t. Be careful of what you download or face the consequences.

info_hash: dbca804f702433d72278f1276b0390e45d8bd70e

Trackers

udp://open.demonii.com:1337/announce
1 hour 10 0

You can get a µTorrent compatible list here.

1 Verify as a good torrent (40) Fake 0 Password 0 Low quality 0 Virus 0 We need your feedback! Please vote, it's quick and anonymous. Bookmark Bookmark
Size: 903 MB

Torrent Contents

Please note that this page does not hosts or makes available any of the listed filenames. You cannot download any of those files from here.

User Comments (47)

che911 (424) 5 years
0
Format : AVI
Format/Info : Audio Video Interleave
File size : 902 MiB
Duration : 1h 38mn
Overall bit rate : 1 279 Kbps
Writing application : VirtualDubMod 1.5.10.2 (build 2542/release)
Writing library : VirtualDubMod build 2542/release
Original source form : MAX TORRENTZ
Copyright : SIGISMUNT

Video
Format : xvid
Codec ID : xvid
Duration : 1h 38mn
Bit rate : 1 139 Kbps
Width : 720 pixels
Height : 304 pixels
Display aspect ratio : 2.35:1
Frame rate : 23.976 fps
Resolution : 24 bits
Bits/(Pixel*Frame) : 0.217
Stream size : 803 MiB (89%)

che911 (424) 5 years
0
Audio
ID : 1
Format : MPEG Audio
Format version : Version 1
Format profile : Layer 3
Codec ID : 55
Codec ID/Hint : MP3
Duration : 1h 38mn
Bit rate mode : Constant
Bit rate : 128 Kbps
Channel(s) : 2 channels
Sampling rate : 48.0 KHz
Resolution : 16 bits
Stream size : 90.3 MiB (10%)
Alignment : Aligned on interleaves
Interleave, duration : 24 ms (0.58 video frame)
Interleave, preload duration : 24 ms
Writing library : LAME3.96.1

http://www.imdb.com/title/tt1186367/

Screens:

http://www.postimg.com/image/12000/11604.jpg

http://www.postimg.com/image/12000/11605.jpg

http://www.postimg.com/image/12000/11606.jpg

http://www.postimg.com/image/12000/11607.jpg

http://www.postimg.com/image/12000/11608.jpg

ScreenCaps:

http://www.postimg.com/image/12000/11609.jpg
sylvereyes (349) 5 years
3
V-9
A-8

REAL !
ITUGGERI (16) 5 years
2
A - 9
V - 7/8

very good worth a download
h_khan_online (103) 5 years
2
many seeder and peers slow the DL.. but it is not a big deal...coz its a MAX torrent.. and we all love it..

THANKS YOU VERY MUCH MAX
bhaskar_rawat (27) 5 years
1
Good movie V good
Gautham551 (17) 5 years
0
how to dycrypt the file .....plzz help...
Gautham551 (17) 5 years
0
not able to use the dycrpter.............
phukyou (82) 5 years
0
top quality 1010
Flaxxo (5) 5 years
0
dis is a good print wathcable
v-9
a-9

You can download
akhilesh_k (10) 5 years
0
very good job thanks to uploader
and93 (137) 5 years
0
good one
bobeoin (10) 5 years
0
very good thanks
DualCool21 (2) 5 years
-1
sounds good to me...
shuhaab (34) 5 years
-1
this movie is 1 of the best i've watched recently.........superb job max
audio 9
video 9.5
dont waste ur time .....download it......its awsome
bluescape (30) 5 years
0
Quality film, excellent audio and video, well worth the download and thanks max speed, nice one
nivilvarghese97 (-6) 5 years
-8
ridersofthestorm (2) 5 years
1
Good Print ,,,,,,
sid123445 (1) 5 years
0
where can i find english subs for this movie....:)
Trixta (15) 5 years
1
What do I download to get the video working?
bluescape (30) 5 years
1
Try VLC player, I use for all downloaded content and usually works and is FREE
moviefreakdeepak (5) 5 years
1
nice print
A-10
V-9
DannyLaVie2009 (65) 5 years
1
Different Style Movie....really Greattt...worth to watch!!
:-) thanks for posting good quality

P.E.A.C.E.
Trixta (15) 5 years
0
Thanks Blue!
Generikov (2) 5 years
1
Thanks for the upload! :)
jhovehe (2) 5 years
1
thanks max
Theprestige (65) 4 years
1
A-10
V-10
jodha1992 (110) 4 years
2
Audio
ID : 1
Format : MPEG Audio
Format version : Version 1
Format profile : Layer 3
Codec ID : 55
Codec ID/Hint : MP3
Duration : 1h 38mn
Bit rate mode : Constant
Bit rate : 128 Kbps
Channel(s) : 2 channels
Sampling rate : 48.0 KHz
Resolution : 16 bits
Stream size : 90.3 MiB (10%)
Alignment : Aligned on interleaves
Interleave, duration : 24 ms (0.58 video frame)
Interleave, preload duration : 24 ms
Writing library : LAME3.96.1

http://www.imdb.com/title/tt1186367/

Screens:

http://www.postimg.com/image/12000/11604.jpg

http://www.postimg.com/image/12000/11605.jpg

http://www.postimg.com/image/12000/11606.jpg

http://www.postimg.com/image/12000/11607.jpg

http://www.postimg.com/image/12000/11608.jpg

ScreenCaps:

http://www.postimg.com/image/12000/11609.jpg
ekirn747 (3) 4 years
0
V:10
A:10
jodha1992 (110) 4 years
2
very good print
imrankhan786 (0) 4 years
-4
Justonfire (13) 4 years
1
yeahhh very good quality
KillerJay (20) 4 years
1
Great Work.
Really good quality.
A-8
V-8
KillerJay (20) 4 years
0
sid123445, u can find the english subtitles at:
www.subscene.com
Minus-One (128) 4 years
0
Nice movie
chablu91 (193) 4 years
0
Goodddddddddddddddddddd movieeeeeeeeeeeeeeeeeee
thisispandorum (12) 4 years
-1
Good movie about ninjas.
Good quality copy aswell
V:9
A:9
krezy94 (20) 4 years
0
very good print
V-10
A-10
trahulrhce (-11) 4 years
0
good print .........
works g8t.....
a/v 10/10..........
ambujch1 (1) 4 years
0
thnx 4 nice upload.
Mallllu (-11) 4 years
-1
Download HD http://www.e-castig.com/index.php?r=g1lLc ;))
cyanide2008 (44) 4 years
0
Thnx, maxspeed. keep up the good work.
sushant_gattani (3) 4 years
0
GOOD Print..............Watch it.....worth once !!!
jasonchmiel (2) 4 years
1
Tracked by a billion entities. My Peer Blocker caught companies with "Police" in their names, "Time Warner", Sony Network, and a million universities and foreign named groups. I highly recommend only facing this risk if you have PeerGuardian or PeerBlock and have faith in them. On the upside though, if you do have faith and don't get caught:

v 10/10
a 10/10
Very good copy. Not HD but I don't rate based on HD if it's not claiming to be.
tojo667 (1) 4 years
0
good movie
amirmolavi (4) 4 years
0
very nice.thanks alot.a9 v9
thusitharulz (20) 2 years
0
thama danne na
Post a comment

You need to log in before you can post comments.