Torrentz

Added 7 years ago

KAMASUTRA - A tale of love M0vie DvD Rip-blastsoft.avi 7 download locations

Download Direct KAMASUTRA - A tale of love M0vie DvD Rip-blastsoft.avi
Sponsored Link
kat.cr KAMASUTRA A tale of love M0vie DvD Rip blastsoft avi movies
18 hours
torrenthound.com KAMASUTRA A tale of love M0vie DvD Rip blastsoft avi movies drama
2 days
monova.org KAMASUTRA A tale of love M0vie DvD Rip blastsoft avi movies
6 days
seedpeer.me kamasutra a tale of love m0vie dvd rip blastsoft avi movies drama
10 months
torrentdownloads.me KAMASUTRA A tale of love M0vie DvD Rip blastsoft avi drama
8 days
bitsnoop.com KAMASUTRA A tale of love M0vie DvD Rip blastsoft avi video movies
3 days
torrentproject.se KAMASUTRA A tale of love M0vie DvD Rip blastsoft video
16 hours

Using BitTorrent is legal, downloading copyrighted material isn’t. Be careful of what you download or face the consequences.
You need a client like qBittorrent, Deluge or Transmission to download.

info_hash: ed8938c995ed3c0107ca2810b143553b8667a9a8

Trackers

Could not scrape any of the trackers for peer statistics.
This does not mean the torrent is dead.

? Verify as a good torrent (0) Fake 0 Password 0 Low quality 0 Virus 0 We need your feedback! Please vote, it's quick and anonymous. Bookmark Bookmark
Size: 1,095 MB

Torrent Contents

Please note that this page does not hosts or makes available any of the listed filenames. You cannot download any of those files from here.

User Comments (2)

vitaminhd (2) 7 years
0
down how?
BBDragon (12) 5 years
0
**** MediaInfo ****

Video
ID : 0
Format : MPEG-4 Visual
Format settings, BVOP : No
Format settings, QPel : No
Format settings, GMC : No warppoints
Format settings, Matrix : Default (H.263)
Codec ID : DIVX
Codec ID/Info : Project Mayo
Codec ID/Hint : DivX 4
Duration : 1h 54mn
Bit rate : 1 200 Kbps
Width : 720 pixels
Height : 480 pixels
Display aspect ratio : 4:3
Frame rate : 23.976 fps
Standard : NTSC
Color space : YUV
Chroma subsampling : 4:2:0
Bit depth : 8 bits
Scan type : Progressive
Bits/(Pixel*Frame) : 0.145
Stream size : 980 MiB (90%)
Writing library : avc2.0.11.1110

Audio
ID : 1
Format : MPEG Audio
Format version : Version 1
Format profile : Layer 3
Mode : Joint stereo
Mode extension : MS Stereo
Codec ID : 55
Codec ID/Hint : MP3
Duration : 1h 54mn
Bit rate mode : Constant
Bit rate : 128 Kbps
Channel(s) : 2 channels
Sampling rate : 48.0 KHz
Stream size : 105 MiB (10%)
Alignment : Aligned on interleaves
Interleave, duration : 24 ms (0.58 video frame)

Overall video quality rather very bad... 3/10 but nice movie. Thanks
Post a comment

You need to log in before you can post comments.

hindi movie 1s, backtrack 2s, brandi love 3s, tv 0s, garry s mod 1s, warlock 1959 0s, kingsman 3s, brooklyn nine 3s, paddington 2s, the revenant 1s