Torrentz

Added 6 years ago

KAMASUTRA - A tale of love M0vie DvD Rip-blastsoft.avi 9 download locations

Download Direct KAMASUTRA - A tale of love M0vie DvD Rip-blastsoft.avi
Sponsored Link
kickass.to KAMASUTRA A tale of love M0vie DvD Rip blastsoft avi movies
22 hours
katproxy.com KAMASUTRA A tale of love M0vie DvD Rip blastsoft avi movies
22 hours
extratorrent.cc KAMASUTRA A tale of love M0vie DvD Rip blastsoft avi movies drama
16 hours
torrenthound.com KAMASUTRA A tale of love M0vie DvD Rip blastsoft avi movies drama
23 hours
monova.org KAMASUTRA A tale of love M0vie DvD Rip blastsoft avi movies
23 hours
h33t.to KAMASUTRA A tale of love M0vie DvD Rip blastsoft avi movies
21 hours
seedpeer.me kamasutra a tale of love m0vie dvd rip blastsoft avi movies drama
2 months
torrentdownloads.me KAMASUTRA A tale of love M0vie DvD Rip blastsoft avi drama
14 hours
bitsnoop.com KAMASUTRA A tale of love M0vie DvD Rip blastsoft avi video movies
2 months
torrentproject.se KAMASUTRA A tale of love M0vie DvD Rip blastsoft video
19 hours

Using BitTorrent is legal, downloading copyrighted material isn’t. Be careful of what you download or face the consequences.

info_hash: ed8938c995ed3c0107ca2810b143553b8667a9a8

Trackers

http://tracker.best-torrents.net:6969/announce
1 hour 0 1
udp://open.demonii.com:1337/announce
1 hour 0 1

You can get a µTorrent compatible list here.

? Verify as a good torrent (2) Fake 0 Password 0 Low quality 0 Virus 0 We need your feedback! Please vote, it's quick and anonymous. Bookmark Bookmark
Size: 1,095 MB

Torrent Contents

Please note that this page does not hosts or makes available any of the listed filenames. You cannot download any of those files from here.

User Comments (2)

vitaminhd (2) 6 years
0
down how?
BBDragon (12) 4 years
0
**** MediaInfo ****

Video
ID : 0
Format : MPEG-4 Visual
Format settings, BVOP : No
Format settings, QPel : No
Format settings, GMC : No warppoints
Format settings, Matrix : Default (H.263)
Codec ID : DIVX
Codec ID/Info : Project Mayo
Codec ID/Hint : DivX 4
Duration : 1h 54mn
Bit rate : 1 200 Kbps
Width : 720 pixels
Height : 480 pixels
Display aspect ratio : 4:3
Frame rate : 23.976 fps
Standard : NTSC
Color space : YUV
Chroma subsampling : 4:2:0
Bit depth : 8 bits
Scan type : Progressive
Bits/(Pixel*Frame) : 0.145
Stream size : 980 MiB (90%)
Writing library : avc2.0.11.1110

Audio
ID : 1
Format : MPEG Audio
Format version : Version 1
Format profile : Layer 3
Mode : Joint stereo
Mode extension : MS Stereo
Codec ID : 55
Codec ID/Hint : MP3
Duration : 1h 54mn
Bit rate mode : Constant
Bit rate : 128 Kbps
Channel(s) : 2 channels
Sampling rate : 48.0 KHz
Stream size : 105 MiB (10%)
Alignment : Aligned on interleaves
Interleave, duration : 24 ms (0.58 video frame)

Overall video quality rather very bad... 3/10 but nice movie. Thanks
Post a comment

You need to log in before you can post comments.