Torrentz

Added 6 years ago

Up In The Air (2009) DVDRip XviD-MAXSPEED 15 download locations

Download Direct Up In The Air (2009) DVDRip XviD-MAXSPEED
Sponsored Link
1337x.to Up In The Air 2009 DVDRip XviD MAXSPEED movies divx xvid
17 hours
rarbg.com Up In The Air 2009 DVDRip XviD MAXSPEED rarbg com movies xvid
1 hour
thepiratebay.org Up In The Air 2009 DVDRip XviD MAX video movies
1 year
torrenthound.com Up In The Air 2009 DVDRip XviD MAXSPEED movies
2 days
torlock.com Up In The Air 2009 DVDRip XviD MAXSPEED movies
3 days
yourbittorrent.com Up In The Air DVDRip XviD movies
5 days
monova.org Up In The Air 2009 DVDRip XviD MAX movies
2 days
h33t.to Up In The Air 2009 DVDRip XviD MAXSPEED movies
11 months
torrentreactor.com Up In The Air 2009 DVDRip XviD MAX movies dvdrip xvid 2009
10 months
torrentdownloads.me Up In The Air 2009 DVDRip XviD MAXSPEED movies
2 days
torrents.net Up In The Air 2009 DVDRip XviD MAXSPEED movies
2 days
torrentfunk.com Up In The Air 2009 DVDRip XviD MAXSPEED movies
yesterday
limetorrents.cc Up In The Air 2009 DVDRip XviD MAX movies
5 days
bitsnoop.com Up In The Air 2009 DVDRip XviD MAX video movies
14 days
torrentproject.se Up In The Air 2009 DVDRip XviD MAXSPEED video dvdrip
2 days

Using BitTorrent is legal, downloading copyrighted material isn’t. Be careful of what you download or face the consequences.
You need a client like qBittorrent, Deluge or Transmission to download.

info_hash: 3f596326895891826e030aab756d6832b99a1359

Trackers

http://tracker.bittorrent.am/announce
38 min 1 1

You can get a µTorrent compatible list here.

1 Verify as a good torrent (20) Fake 0 Password 0 Low quality 6 Virus 0 We need your feedback! Please vote, it's quick and anonymous. Bookmark Bookmark
Size: 1,402 MB

Torrent Contents

Please note that this page does not hosts or makes available any of the listed filenames. You cannot download any of those files from here.

User Comments (17)

che911 (424) 6 years
2
Up In The Air (2009) DVDRip XviD-MAX

Format : AVI
Format/Info : Audio Video Interleave
File size : 1.37 GiB
Duration : 1h 49mn
Overall bit rate : 1 792 Kbps
Writing application : VirtualDubMod 1.5.10.2 (build 2542/release)
Writing library : VirtualDubMod build 2542/release
Original source form : MAX TORRENTZ
Copyright : SIGISMUNT

Video
ID : 0
Format : MPEG-4 Visual
Format profile : AdvancedSimple[@]L5
Format settings, BVOP : Yes
Format settings, QPel : No
Format settings, GMC : No warppoints
Format settings, Matrix : Default (H.263)
Codec ID : XVID
Codec ID/Hint : XviD
Duration : 1h 49mn
Bit rate : 1 334 Kbps
Width : 608 pixels
Height : 320 pixels
Display aspect ratio : 1.900
Frame rate : 23.976 fps
Resolution : 24 bits
Colorimetry : 4:2:0
Scan type : Progressive
Bits/(Pixel*Frame) : 0.286
Stream size : 1.02 GiB (74%)
Writing library : XviD 1.2.1 (UTC 2008-12-04)
che911 (424) 6 years
2
Audio
ID : 1
Format : AC-3
Format/Info : Audio Coding 3
Codec ID : 2000
Duration : 1h 49mn
Bit rate mode : Constant
Bit rate : 448 Kbps
Channel(s) : 6 channels
Channel positions : Front: L C R, Surround: L R, LFE
Sampling rate : 48.0 KHz
Stream size : 350 MiB (25%)
Alignment : Split accross interleaves
Interleave, duration : 42 ms (1.00 video frame)
Interleave, preload duration : 500 ms

http://www.imdb.com/title/tt1193138/

Screens:

http://www.postimg.com/image/12000/11392.jpg

http://www.postimg.com/image/12000/11393.jpg

http://www.postimg.com/image/12000/11394.jpg

http://www.postimg.com/image/12000/11395.jpg

ScreenCaps:

http://www.postimg.com/image/12000/11396.jpg
ananmi2 (34) 6 years
-5
fortknoxx (67) 6 years
2
A-9
V-8

--TY--
emp (129) 6 years
5
its all good and thanks m8 for this one
A-9
V-9
rohit_tatya (4) 6 years
0
A-10
V-10
ragho_r17 (48) 6 years
0
AWESOME MOVIE
George Rocks...!!!!!
ragho_r17 (48) 6 years
-1
a - 10
v - 10
jodha1992 (110) 6 years
-1






thanks seed and peer
anwarspn (19) 6 years
-1
thankssss
Achshar (43) 6 years
-2
not a supurb rip but a:9 v:8. thanks anyways :)
awthoridad (34) 6 years
-1
a9
v9
ameerthegreat (0) 6 years
-1
thnkxxxx
Arkradon (2) 6 years
-1
Thank you for this movie. It was fun :P
foxyrunner2008 (0) 5 years
-1
Umm... I'm new to this, and I'm not very computer-savvy. How do I download the movie I wanna watch? I set up a username/password. Now what? Where do I click? I just keep getting directed to other websites that require membership. :(
Dab1ad3 (11) 5 years
0
Fantastic movie.
rahulggg (-1) 4 years
-1
Greatttttttttttttttttttt Movie Hats off....
Post a comment

You need to log in before you can post comments.

Related to up in the air

Up in the Air 2009 720p BrRip x264 YIFY » movies hd video
83 years700 MB 51
Up In The Air 2009 1080p BluRay x264 CiNEFiLE » movies h 264 x264
1 1 year8270 MB 31
Мне бы в небо Up in the Air 2009 BDRip AVC by Infineon » movies video isohunt rulezzz
26 years2235 MB 20
R K Lilley Up In The Air Series » books ebooks
1 year1 MB 20
Tranny His Ass Up In The Air » xxx video
28 days738 MB 25
Up In The Air 2009 DVDSCR XviD CAMELOT » video movies
6 years700 MB 10
Up In The Air DVDSCR CAMELOT NORARS » video movies
6 years711 MB 10
Up In The Air 2009 DVDScr H264 AAC SecretMyth Kingdom Release » video movies
6 years1486 MB 10
Up in the Air 2009 DVDSCR NL Subs DivXNL Team » movies divx xvid
16 years700 MB 10
Up In The Air 2009 DVDRip XviD Larceny rarbg com » movies xvid video
26 years1412 MB 10
Up In The Air 2009 DVDRip XviD Larceny » video movies
6 years1412 MB 10
Up In The Air 2009 BRRip XviD AC3 SANTi » video movies
26 years1471 MB 10
Up in the Air 2009 BDRip 1080p » movies
6 years11 GB 10
Up In The Air DVDRip Spanish 2009 » movies video
6 years1672 MB 10
Up In The Air DVDR Spanish PAL » movies
6 years4464 MB 10
czech streets 0s, hon3y 3s, mommy got boobs porn 3s, telugu 1s, age of empires 3 1s, fast and furious 2 1s, tamil movies 2016 hd 0s, grimm 2s, tamil 3s, game of thrones s06e03 3s