Torrentz

Added 8 years ago

Malena [2000][DVDRIP-ITA][Uncut] 12 download locations

Download Direct Malena [2000][DVDRIP-ITA][Uncut]
Sponsored Link
kat.cr Malena 2000 DVDRIP ITA Uncut movies
19 hours
extratorrent.cc Malena 2000 ITAUncut movies drama
12 hours
thepiratebay.org Malena 2000 DVDRIP ITA Uncut video movies
1 year
torrenthound.com Malena 2000 DVDRIP ITA Uncut movies
21 hours
yourbittorrent.com Malena movies
1 month
monova.org Malena 2000 DVDRIP ITA Uncut movies
21 hours
torrentreactor.com Malena 2000 DVDRIP ITA Uncut movies drama dvdrip 2000
11 months
seedpeer.me malena 2000 dvdrip ita uncut movies drama
1 year
torrentdownloads.me Malena 2000 DVDRIP ITA Uncut drama
1 hour
torrentfunk.com Malena movies
7 hours
isohunt.to Malena 2000 DVDRIP ITA Uncut movies isohunt rulezzz
17 hours
torrentproject.se Malena 2000 DVDRip ITA Uncut video dvdrip
16 hours

Using BitTorrent is legal, downloading copyrighted material isn’t. Be careful of what you download or face the consequences.
You need a client like qBittorrent, Deluge or Transmission to download.

info_hash: d2e07daf27c860231b955cbe1f6a6da89c4b0b97

Trackers

http://www.opentrackr.org/announce
33 min 5 1
http://tracker.bittorrent.am/announce
54 min 2 0
http://tracker.aletorrenty.pl:2710/announce
24 min 2 0
http://explodie.org:6969/announce
1 hour 2 0
http://tracker1.wasabii.com.tw:6969/announce
54 min 0 1

You can get a µTorrent compatible list here.

? Verify as a good torrent (4) Fake 0 Password 0 Low quality 0 Virus 0 We need your feedback! Please vote, it's quick and anonymous. Bookmark Bookmark
Size: 1,251 MB

Torrent Contents

Please note that this page does not hosts or makes available any of the listed filenames. You cannot download any of those files from here.

User Comments (9)

surper88west (83) 7 years
1
I like the music of the movie
Great Thanks
lucky_devil99 (6) 7 years
0
quitly is good.I like dis movie.great thanks..
charlesfire2 (157) 7 years
0
i like the movie but its not in english
a:9
v:9
keksiboy (88) 7 years
1
Dang Monica Bellucci is so sexy.......
girishvarma26 (19) 6 years
0
can any one post the english sub titles of this movie
jesusseamus (21) 6 years
1
http://subscene.com/Malena-Malna/subtitles-5956.aspx

For englsh subtitles and many other languages
prdpg (5) 6 years
0
please seed any one please i am st-rucked at 98.2 % please seed seed seed seed seed seed seed seed
thank you...!!
killgag007 (61) 5 years
0
Thanx @ jesusseamus
for the subtitles
isuru_jr (75) 4 years
1
A/V 8/7

INFO
----
General
Complete name : Malena [2000][DVDRIP-ITA][Uncut].avi
Format : AVI
File size : 1.22 GiB
Duration : 1h 43mn
Overall bit rate : 1 691 Kbps
Writing application : VirtualDubMod 1.5.4.1 (build 2178/release)
Format : MPEG-4 Visual
Codec ID : DX50
Duration : 1h 43mn
Bit rate : 1 236 Kbps
Width : 624 pixels
Height : 256 pixels
Display aspect ratio : 2.40:1
Frame rate : 25.000 fps
Bit depth : 8 bits
Scan type : Progressive
Bits/(Pixel*Frame) : 0.309
Stream size : 914 MiB (73%)
Writing library : DivX 6.0.0 (UTC 2005-06-15)

Audio
Format : AC-3
Codec ID : 2000
Duration : 1h 43mn
Bit rate mode : Constant
Bit rate : 448 Kbps
Channel(s) : 6 channels
Channel positions : Front: L C R, Side: L R, LFE
Sampling rate : 48.0 KHz
Bit depth : 16 bits
Stream size : 331 MiB (26%)
Language : Italian
Post a comment

You need to log in before you can post comments.

far cry 4 0s, the fosters 0s, scandal s05 2s, veep s05e09 0s, shark week 1s, oblivion 2s, game of thrones s06e10 2s, telugu movies 1s, malayalam movie 3s, the wedding ringer 1s