Torrentz

Added 2 years ago

Our Idiot Brother (2011) DVDScR_XviD (Archi) 10 torrent download locations

Download Direct Our Idiot Brother (2011) DVDScR_XviD (Archi)
Sponsored Link
torrenthound.com Our Idiot Brother 2011 DVDScR XviD Archi video movies dvdr
yesterday
yourbittorrent.com Our Idiot Brother DVDScR XviD movies
1 month
monova.org Our Idiot Brother 2011 DVDScR XviD Archi movies
1 month
torrentreactor.net Our Idiot Brother 2011 DVDScR XviD Archi movies dvd r dvdscr xvid 2011
1 month
fulldls.com Our Idiot Brother 2011 DVDScR XviD Archi movies
1 month
seedpeer.me Our Idiot Brother 2011 DVDScR XviD Archi anime dvd r
1 month
torrentdownloads.me Our Idiot Brother 2011 DVDScR XviD Archi movies
1 month
torrents.net Our Idiot Brother 2011 DVDScR XviD Archi movies
3 months
torrentfunk.com Our Idiot Brother 2011 DVDScR XviD Archi movies
1 month
bitsnoop.com Our Idiot Brother 2011 DVDScR XviD Archi video movies
3 months

Using BitTorrent is legal, downloading copyrighted material isn’t. Be careful of what you download or face the consequences.

info_hash: eace426fb00bebee07421cb42b541666478eb5cf

Torrent Trackers

Could not scrape any of the trackers for peer statistics.
This does not mean the torrent is dead.

-1 Verify as a good torrent (2) Fake 2 Password 4 Low quality 0 Virus 0 We need your feedback! Please vote, it's quick and anonymous. Bookmark Bookmark
Size: 691 MB

Torrent Contents

Please note that this page does not hosts or makes available any of the listed filenames. You cannot download any of those files from here.
This list is automatically generated from a “.torrent” file which is simply metadata for the bittorrent protocol. You cannot download the “.torrent” file from here either. We don’t even cache it. If you are lucky the “.torrent” file might still be available on the pages where we found it. There is a list of URLs on top of this page where you might want to start your search. Those domains are completely independent; we have absolutely no control over them. Please don’t blame us if your monitor explodes.

User Comments (7)

Logan_x5x5 (9) 2 years
-2
FAKE!!!
jmmy (-23) 2 years
-2
does not work
johnruk7 (21) 2 years
1
rteal real real
spezticle (64) 2 years
-1
it may be real, it may not, i'm not exactly sure. it's a rar archive within a rar archive and the final rar has a password. there is a txt file that gives links to a sight, sharecash.org where you must fill out a survey and enter your cellphone number before you can download any files.

"Complete any survey below and your download will unlock. The surveys are quick, easy, and fun, so choose one that interests you. If the information you enter into the survey is fake, however, the download will not unlock."
liverpool9 (60) 2 years
0
File size : 691 MiB
Duration : 1h 35mn
-------------------------------------------
Video
ID : 0
Format : MPEG-4 Visual
Format profile : AdvancedSimple@L5
Format settings, BVOP : Yes
Format settings, QPel : No
Format settings, GMC : No warppoints
Format settings, Matrix : Custom
Codec ID : XVID
Codec ID/Hint : XviD
Duration : 1h 35mn
Bit rate : 1 625 Kbps
Width : 720 pixels
Height : 304 pixels
Display aspect ratio : 2.35:1
Frame rate : 23.976 fps
Resolution : 24 bits
Colorimetry : 4:2:0
Scan type : Progressive
Bits/(Pixel*Frame) : 0.310
Stream size : 690 MiB (99%)
Writing library : XviD 58

Audio
ID : 1
Format : AC-3
Format/Info : Audio Coding 3
Codec ID : 2000
Duration : 1h 35mn
Bit rate mode : Constant
Bit rate : 192 Kbps
Channel(s) : 2 channels
Channel positions : L R
Sampling rate : 48.0 KHz
Stream size : 147 MiB (11%)
Alignment : Aligned on interleaves
Interleave, duration : 64 ms (1.53 video frames)
Interleave, preload duration : 192 ms

------------------------------------------------
liverpool9 (60) 2 years
0
Screenshots:

http://img853.imageshack.us/img853/7983/16487027.jpg
http://img155.imageshack.us/img155/1736/29200074.jpg
http://img27.imageshack.us/img27/9708/40975243.jpg
http://img651.imageshack.us/img651/7641/50806794.jpg
http://img854.imageshack.us/img854/513/30550542.jpg
http://img98.imageshack.us/img98/399/54006441.jpg
http://img20.imageshack.us/img20/3980/60010269.jpg
http://img69.imageshack.us/img69/4884/33513543.jpg
http://img202.imageshack.us/img202/7792/72231508.jpg
----------------------------------------------------
jmmy (-23) 2 years
0
**** fake!
Post a comment

You need to log in before you can post comments.

Related to our idiot brother 2011 dvdscr xvid archi

Our Idiot Brother 2011 BDRip DiAMOND » movies video xvid mp3 divx
6✓2 years711 MB 12527
Our Idiot Brother 2011 720p BrRip x264 601 55 MB YIFY » bluray 720p movies h 264 x264 video hd
6✓2 years601 MB 425
Our Idiot Brother 2011 1080p Bluray x264 anoXmous » movies
1✓2 years950 MB 142
Our Idiot Brother 2011 BDRip NL subs DutchReleaseTeam » movies divx xvid
2✓2 years707 MB 60
Our Idiot Brother 2011 FRENCH BDRiP XViD AViTECH TiNO » movies
1✓2 years701 MB 51
Our Idiot Brother 2011 720p BluRay x264 REFiNED » movies h 264 x264 video hd
5✓2 years4487 MB 43
Our Idiot Brother 2011 BRRip XviD Ac3 Feel Free » movies divx xvid
2✓2 years1162 MB 31
Our Idiot Brother 2011 DVDRip XviD ViP3R » movies
1✓2 years714 MB 32
Our Idiot Brother BDRip XviD DiAMOND » movies divx xvid video
5✓2 years711 MB 20
Our Idiot Brother 2011 BDRiP XviD » movies
2✓2 years2738 MB 20
Our Idiot Brother 2011 480p BRRIP Ali Baloch Silver RG » movies h 264 x264
2✓2 years291 MB 20
Our Idiot Brother 2011 Swesub BDRip XviD LD » movies
1✓2 years699 MB 20
Our Idiot Brother BDRip XviD DiAMOND » movies video
4✓2 years711 MB 10
Our Idiot Brother 2011 BRRiP XviD AC3 MiSTERE » movies divx xvid
2✓2 years1441 MB 10
Our Idiot Brother 2011 BRRiP XviD AC3 MiSTERE » movies
1✓2 years1441 MB 11