Torrentz

Added 4 years ago

Our Idiot Brother (2011) DVDScR_XviD (Archi) 9 download locations

Download Direct Our Idiot Brother (2011) DVDScR_XviD (Archi)
Sponsored Link
torrenthound.com Our Idiot Brother 2011 DVDScR XviD Archi video movies dvdr
3 days
yourbittorrent.com Our Idiot Brother DVDScR XviD movies
12 hours
monova.org Our Idiot Brother 2011 DVDScR XviD Archi movies
7 days
torrentreactor.com Our Idiot Brother 2011 DVDScR XviD Archi movies dvd r dvdscr xvid 2011
7 months
seedpeer.me Our Idiot Brother 2011 DVDScR XviD Archi anime dvd r
10 months
torrentdownloads.me Our Idiot Brother 2011 DVDScR XviD Archi movies
8 days
torrents.net Our Idiot Brother 2011 DVDScR XviD Archi movies
3 days
torrentfunk.com Our Idiot Brother 2011 DVDScR XviD Archi movies
3 days
bitsnoop.com Our Idiot Brother 2011 DVDScR XviD Archi video movies
4 days

Using BitTorrent is legal, downloading copyrighted material isn’t. Be careful of what you download or face the consequences.
You need a client like qBittorrent, Deluge or Transmission to download.

info_hash: eace426fb00bebee07421cb42b541666478eb5cf

Trackers

Could not scrape any of the trackers for peer statistics.
This does not mean the torrent is dead.

? Verify as a good torrent (2) Fake 2 Password 2 Low quality 0 Virus 0 We need your feedback! Please vote, it's quick and anonymous. Bookmark Bookmark
Size: 691 MB

Torrent Contents

Please note that this page does not hosts or makes available any of the listed filenames. You cannot download any of those files from here.

User Comments (7)

Logan_x5x5 (9) 4 years
-2
FAKE!!!
jmmy (-23) 4 years
-2
does not work
johnruk7 (21) 4 years
1
rteal real real
spezticle (64) 4 years
-1
it may be real, it may not, i'm not exactly sure. it's a rar archive within a rar archive and the final rar has a password. there is a txt file that gives links to a sight, sharecash.org where you must fill out a survey and enter your cellphone number before you can download any files.

"Complete any survey below and your download will unlock. The surveys are quick, easy, and fun, so choose one that interests you. If the information you enter into the survey is fake, however, the download will not unlock."
liverpool9 (60) 4 years
0
File size : 691 MiB
Duration : 1h 35mn
-------------------------------------------
Video
ID : 0
Format : MPEG-4 Visual
Format profile : AdvancedSimple@L5
Format settings, BVOP : Yes
Format settings, QPel : No
Format settings, GMC : No warppoints
Format settings, Matrix : Custom
Codec ID : XVID
Codec ID/Hint : XviD
Duration : 1h 35mn
Bit rate : 1 625 Kbps
Width : 720 pixels
Height : 304 pixels
Display aspect ratio : 2.35:1
Frame rate : 23.976 fps
Resolution : 24 bits
Colorimetry : 4:2:0
Scan type : Progressive
Bits/(Pixel*Frame) : 0.310
Stream size : 690 MiB (99%)
Writing library : XviD 58

Audio
ID : 1
Format : AC-3
Format/Info : Audio Coding 3
Codec ID : 2000
Duration : 1h 35mn
Bit rate mode : Constant
Bit rate : 192 Kbps
Channel(s) : 2 channels
Channel positions : L R
Sampling rate : 48.0 KHz
Stream size : 147 MiB (11%)
Alignment : Aligned on interleaves
Interleave, duration : 64 ms (1.53 video frames)
Interleave, preload duration : 192 ms

------------------------------------------------
liverpool9 (60) 4 years
0
Screenshots:

http://img853.imageshack.us/img853/7983/16487027.jpg
http://img155.imageshack.us/img155/1736/29200074.jpg
http://img27.imageshack.us/img27/9708/40975243.jpg
http://img651.imageshack.us/img651/7641/50806794.jpg
http://img854.imageshack.us/img854/513/30550542.jpg
http://img98.imageshack.us/img98/399/54006441.jpg
http://img20.imageshack.us/img20/3980/60010269.jpg
http://img69.imageshack.us/img69/4884/33513543.jpg
http://img202.imageshack.us/img202/7792/72231508.jpg
----------------------------------------------------
jmmy (-23) 4 years
0
**** fake!
Post a comment

You need to log in before you can post comments.

malayalam movies 2015 0s, hunger games mocking part 2 0s, scorpion 0s, pc game 3s, english movies 1s, zedd clarity 2s, 2016 hindi movies 1s, the hateful eight 2s, better call saul 1s, isobuster 2s